请选择 进入手机版 | 继续访问电脑版

电驴资源

 找回密码
 立即注册
查看: 35|回复: 0

灌篮高手 / Slam Dunk TV 001-101 Fin 1993 JPN Blu-ray Remux 1080p

[复制链接]

3万

主题

3万

帖子

10万

积分

管理员

Rank: 9Rank: 9Rank: 9

积分
105080
发表于 2020-1-22 17:23:30 | 显示全部楼层 |阅读模式





General
Unique ID                      : 242203239632986712789242391061288187674 (0xB636A5ADD455B2ED4D1318C37F03F71A)
Complete name                  : Slam Dunk - 001.mkv
Format                         : Matroska
Format version                 : Version 4
File size                      : 5.24 GiB
Duration                       : 23 min 9 s
Overall bit rate mode          : Variable
Overall bit rate               : 32.4 Mb/s
Encoded date                   : UTC 2020-01-01 00:00:00
Writing application            : mkvmerge v40.0.0 ('Old Town Road + Pony') 64-bit
Writing library                : libebml v1.3.9 + libmatroska v1.5.2

Video
ID                             : 1
Format                         : AVC
Format/Info                    : Advanced Video Codec
Format profile                 : [email protected]
Format settings                : CABAC / 4 Ref Frames
Format settings, CABAC         : Yes
Format settings, Reference fra : 4 frames
Codec ID                       : V_MPEG4/ISO/AVC
Duration                       : 23 min 9 s
Bit rate mode                  : Variable
Bit rate                       : 30.8 Mb/s
Maximum bit rate               : 40.0 Mb/s
Width                          : 1 920 pixels
Height                         : 1 080 pixels
Display aspect ratio           : 16:9
Frame rate mode                : Constant
Frame rate                     : 23.976 (24000/1001) FPS
Color space                    : YUV
Chroma subsampling             : 4:2:0
Bit depth                      : 8 bits
Scan type                      : Progressive
Bits/(Pixel*Frame)             : 0.620
Stream size                    : 4.99 GiB (95%)
Default                        : Yes
Forced                         : No

Audio
ID                             : 2
Format                         : PCM
Format settings                : Little / Signed
Codec ID                       : A_PCM/INT/LIT
Duration                       : 23 min 9 s
Bit rate mode                  : Constant
Bit rate                       : 1 536 kb/s
Channel(s)                     : 2 channels
Sampling rate                  : 48.0 kHz
Frame rate                     : 200.000 FPS (240 SPF)
Bit depth                      : 16 bits
Stream size                    : 254 MiB (5%)
Language                       : Japanese
Default                        : Yes
Forced                         : No

Menu
00:00:00.000                   : en:Chapter 01
00:01:43.099                   : en:Chapter 02
00:02:19.598                   : en:Chapter 03
00:11:51.707                   : en:Chapter 04
00:21:05.260                   : en:Chapter 05
00:22:36.351                   : en:Chapter 06



1c4f0868add883e62b0e5369cd13216a72e3d527.torrent

668.44 KB, 下载次数: 4

回复

使用道具 举报

您需要登录后才可以回帖 登录 | 立即注册

本版积分规则

快速回复 返回顶部 返回列表